Dont All Season | 720p & 1080p WEBRip x265-BvS

Young CIA analyst Joe Turner has his idealism tested when he stumbles onto a terrible but brilliant plan that threatens the lives of millions. Inspired by Sydney Pollack’s 1975 political thriller Three Days of the Condor.

Links: HOMEPAGE – TV.com

DOWNLOAD

VIP (GOOGLE DRIVE)

This content is reserved for registered users. Sign up here o login to be able to see it.

FREE

NFO

WEBRip.x264-ION10

General
Complete name : Condor.S02E01.WEBRip.x264-ION10.mp4
Format : MPEG-4
Format profile : Base Media
Codec ID : isom (isom/iso2/avc1/mp41)
File size : 485 MiB
Duration : 50 min 9 s
Overall bit rate : 1 351 kb/s
Movie name : Condor.S02E01.WEBRip.x264-ION10
Encoded date : UTC 2020-08-04 06:46:48
Tagged date : UTC 2020-08-04 06:46:48
Writing application : Lavf58.0.101
Comment : Condor.S02E01.WEBRip.x264-ION10

Video
ID : 1
Format : AVC
Format/Info : Advanced Video Codec
Format profile : [email protected]
Format settings : CABAC / 5 Ref Frames
Format settings, CABAC : Yes
Format settings, Reference frames : 5 frames
Codec ID : avc1
Codec ID/Info : Advanced Video Coding
Duration : 50 min 9 s
Bit rate : 1 100 kb/s
Width : 720 pixels
Height : 356 pixels
Display aspect ratio : 2.020
Original display aspect ratio : 2.021
Frame rate mode : Constant
Frame rate : 25.000 FPS
Color space : YUV
Chroma subsampling : 4:2:0
Bit depth : 8 bits
Scan type : Progressive
Bits/(Pixel*Frame) : 0.172
Stream size : 390 MiB (81%)
Title : Condor.S02E01.WEBRip.x264-ION10
Writing library : x264 core 148 r2795M aaa9aa8
Encoding settings : cabac=1 / ref=5 / deblock=1:-1:-1 / analyse=0x3:0x113 / me=umh / subme=9 / psy=1 / psy_rd=1.00:0.15 / mixed_ref=1 / me_range=16 / chroma_me=1 / trellis=2 / 8x8dct=1 / cqm=0 / deadzone=21,11 / fast_pskip=1 / chroma_qp_offset=-3 / threads=24 / lookahead_threads=2 / sliced_threads=0 / nr=0 / decimate=1 / interlaced=0 / bluray_compat=0 / constrained_intra=0 / bframes=3 / b_pyramid=2 / b_adapt=2 / b_bias=0 / direct=3 / weightb=1 / open_gop=0 / weightp=2 / keyint=250 / keyint_min=25 / scenecut=40 / intra_refresh=0 / rc_lookahead=50 / rc=abr / mbtree=1 / bitrate=1100 / ratetol=1.0 / qcomp=0.60 / qpmin=0 / qpmax=69 / qpstep=4 / ip_ratio=1.40 / aq=1:1.00
Encoded date : UTC 2020-08-04 06:46:48
Tagged date : UTC 2020-08-04 06:46:48
Codec configuration box : avcC

Audio
ID : 2
Format : AAC LC
Format/Info : Advanced Audio Codec Low Complexity
Codec ID : mp4a-40-2
Duration : 50 min 9 s
Bit rate mode : Constant
Bit rate : 256 kb/s
Channel(s) : 2 channels
Channel layout : L R
Sampling rate : 48.0 kHz
Frame rate : 46.875 FPS (1024 SPF)
Compression mode : Lossy
Stream size : 91.8 MiB (19%)
Title : Condor.S02E01.WEBRip.x264-ION10
Language : English
Default : Yes
Alternate group : 1
Encoded date : UTC 2020-08-04 06:46:48
Tagged date : UTC 2020-08-04 06:46:48

720p.x265-BvS

 

1080p.x265-BvS

General
ID única : 313806649214512294059545545302388973262 (0xEC14F655D1D95C39BC88284955931ECE)
Nombre completo : Condor.s02e01.exile.is.a.dream.1080p.cmore.web-dl.x265-BvS.mkv
Formato : Matroska
Formato de la versión : Version 4
Tamaño de archivo : 345 MiB
Duración : 50 min 9 s
Tasa de bits general : 961 kb/s
Película : BvSRips
Fecha de codificación : UTC 2020-06-12 12:38:36
Aplicación de codifición : mkvmerge v46.0.0 (‘No Deeper Escape’) 64-bit
Librería de codificación : libebml v1.3.10 + libmatroska v1.5.2

Vídeo
ID : 1
Formato : HEVC
Formato/Info : High Efficiency Video Coding
Formato del perfil : [email protected]@Main
ID códec : V_MPEGH/ISO/HEVC
Duración : 50 min 9 s
Tasa de bits : 832 kb/s
Ancho : 1 920 píxeles
Alto : 1 080 píxeles
Relación de aspecto : 16:9
Modo velocidad fotogramas : Constante
Velocidad de fotogramas : 25,000 FPS
Espacio de color : YUV
Submuestreo croma : 4:2:0
Profundidad bits : 8 bits
Bits/(píxel*fotograma) : 0.016
Tamaño de pista : 298 MiB (86%)
Librería de codificación : x265 1.5:[Windows][GCC 4.7.0][32 bit] Opciones de codificación : wpp / ctu=64 / tu-intra-depth=1 / tu-inter-depth=1 / me=1 / subme=2 / merange=57 / no-rect / no-amp / max-merge=2 / temporal-mvp / early-skip / no-fast-cbf / rdpenalty=0 / no-tskip / no-tskip-fast / strong-intra-smoothing / no-lossless / no-cu-lossless / no-constrained-intra / fast-intra / open-gop / interlace=0 / keyint=250 / min-keyint=25 / scenecut=40 / rc-lookahead=15 / bframes=4 / bframe-bias=0 / b-adapt=0 / ref=1 / weightp / no-weightb / aq-mode=0 / aq-strength=0.00 / cbqpoffs=0 / crqpoffs=0 / rd=2 / psy-rd=0.00 / psy-rdoq=0.00 / signhide / lft / sao / no-sao-non-deblock / b-pyramid / no-cutree / rc=crf / crf=25.0 / qcomp=0.60 / qpmin=0 / qpmax=51 / qpstep=4 / ipratio=1.40 / pbratio=1.30
Default : Sí
Forced : No
Rango de color : Limited
Colores primarios : BT.709
Características transferencia : BT.709
Coeficientes matriz : BT.709

Audio
ID : 2
Formato : AAC LC SBR
Formato/Info : Advanced Audio Codec Low Complexity with Spectral Band Replication
Nombre comercial : HE-AAC
Ajustes del formato : NBC
ID códec : A_AAC-5
Duración : 50 min 9 s
Tasa de bits : 128 kb/s
Canal(es) : 2 canales
Channel layout : L R
Velocidad de muestreo : 48,0 kHz
Velocidad de fotogramas : 23,438 FPS (2048 SPF)
Modo de compresión : Con pérdida
Tamaño de pista : 45,9 MiB (13%)
Idioma : Sueco
Default : Sí
Forced : No

Texto
ID : 3
Formato : ASS
ID códec : S_TEXT/ASS
ID códec/Info : Advanced Sub Station Alpha
Duración : 4 s 500 ms
Tasa de bits : 149 b/s
Count of elements : 1
Modo de compresión : Sin pérdida
Tamaño de pista : 84,0 Bytes (0%)
Default : Sí
Forced : No

Leave a Reply

Your email address will not be published. Required fields are marked *