Looney Tunes Classic Cartoons All Season | 720p & 1080p HBOMAX WEBRip x265-BvS

Looney Tunes 2020

Looney Tunes is an American animated series of comedy short films produced by Warner Bros. from 1929 to 1969 during the golden age of American animation, alongside its sister series Merrie Melodies

Links: HOMEPAGE – TV.com

Note: In English with English Selectable Subtitles

DOWNLOAD

VIP (GOOGLE DRIVE)

This content is reserved for registered users. Sign up here o login to be able to see it.

FREE

  • Episodes 1930-1969 (ONLY VIP)
  • A Few Quick Facts (ONLY VIP)
  • Miscellaneous Shorts (ONLY VIP)
  • Movies (ONLY VIP)
  • Mr. Hook (ONLY VIP)
  • Post-Classic Shorts (ONLY VIP)
  • Snafu (ONLY VIP) 
  • Specials (ONLY VIP) 

NFO

1080p.x265

General
Unique ID : 9837254183159537563681437797926926314 (0x7669613D649BD7CAC0C86088F8177EA)
Complete name : 1953-01-03 – Don’t Give Up The Sheep – Ralph Wolf and Sam Sheepdog (uncensored) (1080p HBOMax).mkv
Format : Matroska
Format version : Version 4
File size : 430 MiB
Duration : 6 min 58 s
Overall bit rate mode : Variable
Overall bit rate : 8 613 kb/s
Writing application : Lavf58.26.101
Writing library : Lavf58.26.101
ErrorDetectionType : Per level 1

Video
ID : 1
Format : AVC
Format/Info : Advanced Video Codec
Format profile : [email protected]
Format settings : CABAC / 4 Ref Frames
Format settings, CABAC : Yes
Format settings, Reference frames : 4 frames
Codec ID : V_MPEG4/ISO/AVC
Duration : 6 min 58 s
Bit rate mode : Variable
Bit rate : 8 058 kb/s
Maximum bit rate : 12.4 Mb/s
Width : 1 920 pixels
Height : 1 080 pixels
Display aspect ratio : 16:9
Frame rate mode : Constant
Frame rate : 23.976 (24000/1001) FPS
Color space : YUV
Chroma subsampling : 4:2:0
Bit depth : 8 bits
Scan type : Progressive
Bits/(Pixel*Frame) : 0.162
Stream size : 402 MiB (94%)
Writing library : Elemental H.264
Default : Yes
Forced : No
Color range : Limited
Color primaries : BT.709
Transfer characteristics : BT.709
Matrix coefficients : BT.709

Audio
ID : 2
Format : AC-3
Format/Info : Audio Coding 3
Commercial name : Dolby Digital
Codec ID : A_AC3
Duration : 6 min 58 s
Bit rate mode : Constant
Bit rate : 384 kb/s
Channel(s) : 2 channels
Channel layout : L R
Sampling rate : 48.0 kHz
Frame rate : 31.250 FPS (1536 SPF)
Bit depth : 32 bits
Compression mode : Lossy
Stream size : 19.2 MiB (4%)
Language : English
Service kind : Complete Main
Default : Yes
Forced : No

Text
ID : 3
Format : UTF-8
Codec ID : S_TEXT/UTF8
Codec ID/Info : UTF-8 Plain Text
Duration : 6 min 53 s
Default : No
Forced : No

1 Response

  1. user86 says:

    Please fix the folder, it says the playbacks exceeded

Leave a Reply

Your email address will not be published. Required fields are marked *