Buffy the Vampire Slayer All Season | 720p & 1080p AMZN WEBRip x265-BvS

Buffy the Vampire Slayer

A young woman, destined to slay vampires, demons and other infernal creatures, deals with her life fighting evil, with the help of her friends.

Links: HOMEPAGE – iMDB

Note: In English with English Selectable Subtitles

DOWNLOAD

VIP (GOOGLE DRIVE)

This content is reserved for registered users. Sign up here o login to be able to see it.

FREE

  • SEASON 1: 720p x265 (ONLY VIP)
  • SEASON 2: 720p x265 (ONLY VIP)
  • SEASON 3: 720p x265 (ONLY VIP)
  • SEASON 4: 720p x265 (ONLY VIP)
  • SEASON 5: 720p x265 (ONLY VIP)
  • SEASON 6: 720p x265 (ONLY VIP)
  • SEASON 7: 720p x265 (ONLY VIP)

NFO

WEBRip.x264-ION10

 

720p.x265-BvS

General
Unique ID : 212421760366435118740878174381469245030 (0x9FCEF162BDAC420CACF06E7338229E66)
Complete name : Buffy.the.Vampire.Slayer.S01E01.720p.AMZN.WEB-DL.x265.mkv
Format : Matroska
Format version : Version 4
File size : 223 MiB
Duration : 43 min 34 s
Overall bit rate : 717 kb/s
Movie name : Encoded by Hunter | Crazy4TV.com / Encoded by Hunter | Crazy4TV.com
Description : Downloaded from Crazy4TV.com
Encoded date : UTC 2018-05-09 14:11:34
Writing application : mkvmerge v9.6.0 (‘Slave To Your Mind’) 64bit
Writing library : libebml v1.3.4 + libmatroska v1.4.5

Video
ID : 1
Format : HEVC
Format/Info : High Efficiency Video Coding
Format profile : [email protected]@Main
Codec ID : V_MPEGH/ISO/HEVC
Duration : 43 min 33 s
Bit rate : 651 kb/s
Width : 1 280 pixels
Height : 720 pixels
Display aspect ratio : 16:9
Frame rate mode : Constant
Frame rate : 23.976 (23976/1000) FPS
Original frame rate : 23.976 (24000/1001) FPS
Color space : YUV
Chroma subsampling : 4:2:0
Bit depth : 8 bits
Bits/(Pixel*Frame) : 0.029
Stream size : 203 MiB (91%)
Default : Yes
Forced : No
Color range : Limited
Color primaries : BT.709
Transfer characteristics : BT.709
Matrix coefficients : BT.709

Audio
ID : 2
Format : AAC LC SBR
Format/Info : Advanced Audio Codec Low Complexity with Spectral Band Replication
Commercial name : HE-AAC
Format settings : Explicit
Codec ID : A_AAC-2
Duration : 43 min 34 s
Bit rate : 64.0 kb/s
Channel(s) : 2 channels
Channel layout : L R
Sampling rate : 48.0 kHz
Frame rate : 23.438 FPS (2048 SPF)
Compression mode : Lossy
Delay relative to video : 3 ms
Stream size : 19.9 MiB (9%)
Default : Yes
Forced : No

Text
ID : 3
Format : UTF-8
Codec ID : S_TEXT/UTF8
Codec ID/Info : UTF-8 Plain Text
Duration : 43 min 25 s
Bit rate : 67 b/s
Count of elements : 841
Stream size : 21.6 KiB (0%)
Default : Yes
Forced : No

1080p.x265-BvS

 

Leave a Reply

Your email address will not be published. Required fields are marked *