Betaal All Season | 720p & 1080p NF WEBRip x265-BvS

Hired to displace tribal villagers to make way for a new highway, officials unearth an old curse and an army of British soldier-zombies.

Links: HOMEPAGE – iMDB

Note: In Hindi With English/German/Spanish/French Selectable Subtitles

DOWNLOAD

VIP (GOOGLE DRIVE)

This content is reserved for registered users. Sign up here o login to be able to see it.

FREE

NFO

WEBRip.x264

General
Nombre completo : B.S01E01.WEB.h264.mp4
Formato : MPEG-4
Formato del perfil : Base Media
ID códec : isom (isom/iso2/avc1/mp41)
Tamaño de archivo : 331 MiB
Duración : 45 min 46 s
Tasa de bits general : 1 010 kb/s
Aplicación de codifición : Lavf56.25.101

Vídeo
ID : 1
Formato : AVC
Formato/Info : Advanced Video Codec
Formato del perfil : [email protected]
Ajustes del formato : 1 Ref Frames
Ajustes del formato, CABAC : No
Ajustes del formato, RefFrames : 1 fotograma
Ajustes del formato, GOP : M=1, N=12
ID códec : avc1
ID códec/Info : Advanced Video Coding
Duración : 45 min 44 s
Tasa de bits : 900 kb/s
Ancho : 720 píxeles
Alto : 400 píxeles
Relación de aspecto : 16:9
Modo velocidad fotogramas : Constante
Velocidad de fotogramas : 24,000 FPS
Espacio de color : YUV
Submuestreo croma : 4:2:0
Profundidad bits : 8 bits
Tipo barrido : Progresivo
Bits/(píxel*fotograma) : 0.130
Tamaño de pista : 287 MiB (87%)
Librería de codificación : x264 core 148
Opciones de codificación : cabac=0 / ref=1 / deblock=1:0:0 / analyse=0x1:0x111 / me=dia / subme=7 / psy=1 / psy_rd=1.00:0.00 / mixed_ref=0 / me_range=4 / chroma_me=1 / trellis=0 / 8x8dct=0 / cqm=0 / deadzone=21,11 / fast_pskip=1 / chroma_qp_offset=-2 / threads=8 / lookahead_threads=1 / sliced_threads=0 / nr=0 / decimate=1 / interlaced=0 / bluray_compat=0 / constrained_intra=0 / bframes=0 / weightp=0 / keyint=12 / keyint_min=7 / scenecut=40 / intra_refresh=0 / rc_lookahead=12 / rc=abr / mbtree=1 / bitrate=900 / ratetol=1.0 / qcomp=0.60 / qpmin=3 / qpmax=51 / qpstep=4 / ip_ratio=1.40 / aq=1:1.00
Idioma : Inglés
Codec configuration box : avcC

Audio
ID : 2
Formato : AAC LC
Formato/Info : Advanced Audio Codec Low Complexity
ID códec : mp4a-40-2
Duración : 45 min 46 s
Duration_LastFrame : -9 ms
Tipo de tasa de bits : Constante
Tasa de bits : 128 kb/s
Canal(es) : 2 canales
ChannelLayout : L R
Velocidad de muestreo : 48,0 kHz
Velocidad de fotogramas : 46,875 FPS (1024 SPF)
Modo de compresión : Con pérdida
Tamaño de pista : 41,9 MiB (13%)
Idioma : Inglés
Default : Sí
AlternateGroup/String : 1

720p.x265-BvS

General
ID única : 1125263145793037472391270743973221091 (0xD8B7C1A92C6E7ED66BF8B1D806D2E3)
Nombre completo : B.s01e01.the.tunnel.720p.nf.web-dl.x265-BvS.mkv
Formato : Matroska
Formato de la versión : Version 4
Tamaño de archivo : 206 MiB
Duración : 45 min 46 s
Tasa de bits general : 630 kb/s
Película : BvSRips
Fecha de codificación : UTC 2020-05-24 16:15:17
Aplicación de codifición : mkvmerge v41.0.0 (‘Smarra’) 32-bit
Librería de codificación : libebml v1.3.9 + libmatroska v1.5.2

Vídeo
ID : 1
Formato : HEVC
Formato/Info : High Efficiency Video Coding
Formato del perfil : [email protected]@Main
ID códec : V_MPEGH/ISO/HEVC
Duración : 45 min 46 s
Tasa de bits : 500 kb/s
Ancho : 1 280 píxeles
Alto : 720 píxeles
Relación de aspecto : 16:9
Modo velocidad fotogramas : Constante
Velocidad de fotogramas : 24,000 FPS
Espacio de color : YUV
Submuestreo croma : 4:2:0
Profundidad bits : 8 bits
Bits/(píxel*fotograma) : 0.023
Tamaño de pista : 164 MiB (79%)
Librería de codificación : x265 1.4:[Windows][GCC 4.7.0][32 bit] Opciones de codificación : wpp / ctu=64 / tu-intra-depth=1 / tu-inter-depth=1 / me=1 / subme=2 / merange=57 / no-rect / no-amp / max-merge=2 / temporal-mvp / early-skip / no-fast-cbf / rdpenalty=0 / no-tskip / no-tskip-fast / strong-intra-smoothing / no-lossless / no-cu-lossless / no-constrained-intra / fast-intra / open-gop / interlace=0 / keyint=240 / min-keyint=24 / scenecut=40 / rc-lookahead=15 / bframes=4 / bframe-bias=0 / b-adapt=0 / ref=1 / weightp / no-weightb / aq-mode=0 / aq-strength=0.00 / cbqpoffs=0 / crqpoffs=0 / rd=2 / psy-rd=0.00 / psy-rdoq=0.00 / signhide / lft / sao / no-sao-non-deblock / b-pyramid / no-cutree / rc=crf / crf=25.0 / qcomp=0.60 / qpmin=0 / qpmax=51 / qpstep=4 / ipratio=1.40 / pbratio=1.30
Default : Sí
Forced : No
Rango de color : Limited
Colores primarios : BT.709
Características transferencia : BT.709
Coeficientes matriz : BT.709

Audio
ID : 2
Formato : AAC LC SBR
Formato/Info : Advanced Audio Codec Low Complexity with Spectral Band Replication
Nombre comercial : HE-AAC
Ajustes del formato : NBC
ID códec : A_AAC-5
Duración : 45 min 46 s
Tasa de bits : 128 kb/s
Canal(es) : 2 canales
ChannelLayout : L R
Velocidad de muestreo : 44,1 kHz
Velocidad de fotogramas : 21,533 FPS (2048 SPF)
Modo de compresión : Con pérdida
Retraso relativo al vídeo : -114 ms
Tamaño de pista : 41,9 MiB (20%)
Idioma : Hindi
Default : Sí
Forced : No

Texto
ID : 3
Formato : ASS
ID códec : S_TEXT/ASS
ID códec/Info : Advanced Sub Station Alpha
Duración : 4 s 500 ms
Tasa de bits : 149 b/s
ElementCount : 1
Modo de compresión : Sin pérdida
Tamaño de pista : 84,0 Bytes (0%)
Default : Sí
Forced : No

1080p.x265-BvS

General
Unique ID : 90110827251663141857370141404142857520 (0x43CAB6CC186AC6E7D7E56BD8897D6D30)
Complete name : Betaal.S01E01.The.Tunnel.HINDI.1080p.10bit.WEBRip.6CH.x265.HEVC.mkv
Format : Matroska
Format version : Version 4
File size : 548 MiB
Duration : 45 min 46 s
Overall bit rate : 1 675 kb/s
Movie name :  Betaal.S01E01.The.Tunnel.HINDI.1080p.10bit.WEBRip.6CH.x265.HEVC-PSA
Encoded date : UTC 2020-05-26 05:06:22
Writing application : mkvmerge v46.0.0 (‘No Deeper Escape’) 64-bit
Writing library : libebml v1.3.10 + libmatroska v1.5.2

Video
ID : 1
Format : HEVC
Format/Info : High Efficiency Video Coding
Format profile : Main [email protected]@Main
Codec ID : V_MPEGH/ISO/HEVC
Duration : 45 min 44 s
Bit rate : 1 457 kb/s
Width : 1 920 pixels
Height : 960 pixels
Display aspect ratio : 2.000
Frame rate mode : Constant
Frame rate : 24.000 FPS
Color space : YUV
Chroma subsampling : 4:2:0
Bit depth : 10 bits
Bits/(Pixel*Frame) : 0.033
Stream size : 477 MiB (87%)
Default : Yes
Forced : No

Audio
ID : 2
Format : AAC LC SBR
Format/Info : Advanced Audio Codec Low Complexity with Spectral Band Replication
Commercial name : HE-AAC
Format settings : Explicit
Codec ID : A_AAC-2
Duration : 45 min 46 s
Bit rate : 213 kb/s
Channel(s) : 6 channels
Channel layout : C L R Ls Rs LFE
Sampling rate : 48.0 kHz
Frame rate : 23.438 FPS (2048 SPF)
Compression mode : Lossy
Delay relative to video : 23 ms
Stream size : 69.6 MiB (13%)
Language : Hindi
Default : Yes
Forced : No

Text #1
ID : 3
Format : UTF-8
Codec ID : S_TEXT/UTF8
Codec ID/Info : UTF-8 Plain Text
Duration : 41 min 32 s
Bit rate : 57 b/s
Count of elements : 551
Stream size : 17.6 KiB (0%)
Language : English
Default : No
Forced : No

Text #2
ID : 4
Format : UTF-8
Codec ID : S_TEXT/UTF8
Codec ID/Info : UTF-8 Plain Text
Duration : 41 min 59 s
Bit rate : 91 b/s
Count of elements : 574
Stream size : 28.2 KiB (0%)
Language : Arabic
Default : No
Forced : No

Text #3
ID : 5
Format : UTF-8
Codec ID : S_TEXT/UTF8
Codec ID/Info : UTF-8 Plain Text
Duration : 41 min 59 s
Bit rate : 49 b/s
Count of elements : 572
Stream size : 15.2 KiB (0%)
Language : Czech
Default : No
Forced : No

Text #4
ID : 6
Format : UTF-8
Codec ID : S_TEXT/UTF8
Codec ID/Info : UTF-8 Plain Text
Duration : 44 min 45 s
Bit rate : 51 b/s
Count of elements : 533
Stream size : 16.7 KiB (0%)
Language : Danish
Default : No
Forced : No

Text #5
ID : 7
Format : UTF-8
Codec ID : S_TEXT/UTF8
Codec ID/Info : UTF-8 Plain Text
Duration : 41 min 59 s
Bit rate : 50 b/s
Count of elements : 563
Stream size : 15.7 KiB (0%)
Language : German
Default : No
Forced : No

Text #6
ID : 8
Format : UTF-8
Codec ID : S_TEXT/UTF8
Codec ID/Info : UTF-8 Plain Text
Duration : 44 min 45 s
Bit rate : 86 b/s
Count of elements : 556
Stream size : 28.2 KiB (0%)
Language : Greek
Default : No
Forced : No

Text #7
ID : 9
Format : UTF-8
Codec ID : S_TEXT/UTF8
Codec ID/Info : UTF-8 Plain Text
Duration : 41 min 59 s
Bit rate : 57 b/s
Count of elements : 574
Stream size : 17.6 KiB (0%)
Language : Spanish
Default : No
Forced : No

Text #8
ID : 10
Format : UTF-8
Codec ID : S_TEXT/UTF8
Codec ID/Info : UTF-8 Plain Text
Duration : 41 min 59 s
Bit rate : 61 b/s
Count of elements : 573
Stream size : 18.8 KiB (0%)
Title : European
Language : Spanish
Default : No
Forced : No

Text #9
ID : 11
Format : UTF-8
Codec ID : S_TEXT/UTF8
Codec ID/Info : UTF-8 Plain Text
Duration : 44 min 45 s
Bit rate : 50 b/s
Count of elements : 529
Stream size : 16.6 KiB (0%)
Language : Finnish
Default : No
Forced : No

Text #10
ID : 12
Format : UTF-8
Codec ID : S_TEXT/UTF8
Codec ID/Info : UTF-8 Plain Text
Duration : 41 min 59 s
Bit rate : 55 b/s
Count of elements : 573
Stream size : 17.2 KiB (0%)
Language : French
Default : No
Forced : No

Text #11
ID : 13
Format : UTF-8
Codec ID : S_TEXT/UTF8
Codec ID/Info : UTF-8 Plain Text
Duration : 44 min 48 s
Bit rate : 80 b/s
Count of elements : 576
Stream size : 26.3 KiB (0%)
Language : Hebrew
Default : No
Forced : No

Text #12
ID : 14
Format : UTF-8
Codec ID : S_TEXT/UTF8
Codec ID/Info : UTF-8 Plain Text
Duration : 44 min 46 s
Bit rate : 138 b/s
Count of elements : 588
Stream size : 45.5 KiB (0%)
Language : Hindi
Default : No
Forced : No

Text #13
ID : 15
Format : UTF-8
Codec ID : S_TEXT/UTF8
Codec ID/Info : UTF-8 Plain Text
Duration : 44 min 46 s
Bit rate : 188 b/s
Count of elements : 695
Stream size : 61.7 KiB (0%)
Title : SDH
Language : Hindi
Default : No
Forced : No

Text #14
ID : 16
Format : UTF-8
Codec ID : S_TEXT/UTF8
Codec ID/Info : UTF-8 Plain Text
Duration : 41 min 59 s
Bit rate : 56 b/s
Count of elements : 574
Stream size : 17.3 KiB (0%)
Language : Hungarian
Default : No
Forced : No

Text #15
ID : 17
Format : UTF-8
Codec ID : S_TEXT/UTF8
Codec ID/Info : UTF-8 Plain Text
Duration : 41 min 59 s
Bit rate : 56 b/s
Count of elements : 572
Stream size : 17.5 KiB (0%)
Language : Indonesian
Default : No
Forced : No

Text #16
ID : 18
Format : UTF-8
Codec ID : S_TEXT/UTF8
Codec ID/Info : UTF-8 Plain Text
Duration : 44 min 45 s
Bit rate : 50 b/s
Count of elements : 569
Stream size : 16.7 KiB (0%)
Language : Italian
Default : No
Forced : No

Text #17
ID : 19
Format : UTF-8
Codec ID : S_TEXT/UTF8
Codec ID/Info : UTF-8 Plain Text
Duration : 44 min 45 s
Bit rate : 49 b/s
Count of elements : 559
Stream size : 16.1 KiB (0%)
Language : Japanese
Default : No
Forced : No

Text #18
ID : 20
Format : UTF-8
Codec ID : S_TEXT/UTF8
Codec ID/Info : UTF-8 Plain Text
Duration : 41 min 59 s
Bit rate : 69 b/s
Count of elements : 573
Stream size : 21.4 KiB (0%)
Language : Korean
Default : No
Forced : No

Text #19
ID : 21
Format : UTF-8
Codec ID : S_TEXT/UTF8
Codec ID/Info : UTF-8 Plain Text
Duration : 44 min 45 s
Bit rate : 54 b/s
Count of elements : 536
Stream size : 17.8 KiB (0%)
Language : Norwegian Bokmal
Default : No
Forced : No

Text #20
ID : 22
Format : UTF-8
Codec ID : S_TEXT/UTF8
Codec ID/Info : UTF-8 Plain Text
Duration : 44 min 44 s
Bit rate : 49 b/s
Count of elements : 516
Stream size : 16.2 KiB (0%)
Language : Dutch
Default : No
Forced : No

Text #21
ID : 23
Format : UTF-8
Codec ID : S_TEXT/UTF8
Codec ID/Info : UTF-8 Plain Text
Duration : 41 min 59 s
Bit rate : 51 b/s
Count of elements : 564
Stream size : 15.8 KiB (0%)
Language : Polish
Default : No
Forced : No

Text #22
ID : 24
Format : UTF-8
Codec ID : S_TEXT/UTF8
Codec ID/Info : UTF-8 Plain Text
Duration : 41 min 59 s
Bit rate : 55 b/s
Count of elements : 572
Stream size : 17.2 KiB (0%)
Language : Portuguese
Default : No
Forced : No

Text #23
ID : 25
Format : UTF-8
Codec ID : S_TEXT/UTF8
Codec ID/Info : UTF-8 Plain Text
Duration : 41 min 59 s
Bit rate : 53 b/s
Count of elements : 573
Stream size : 16.3 KiB (0%)
Title : Brazilian
Language : Portuguese
Default : No
Forced : No

Text #24
ID : 26
Format : UTF-8
Codec ID : S_TEXT/UTF8
Codec ID/Info : UTF-8 Plain Text
Duration : 41 min 59 s
Bit rate : 56 b/s
Count of elements : 566
Stream size : 17.4 KiB (0%)
Language : Romanian
Default : No
Forced : No

Text #25
ID : 27
Format : UTF-8
Codec ID : S_TEXT/UTF8
Codec ID/Info : UTF-8 Plain Text
Duration : 42 min 1 s
Bit rate : 85 b/s
Count of elements : 579
Stream size : 26.4 KiB (0%)
Language : Russian
Default : No
Forced : No

Text #26
ID : 28
Format : UTF-8
Codec ID : S_TEXT/UTF8
Codec ID/Info : UTF-8 Plain Text
Duration : 44 min 45 s
Bit rate : 50 b/s
Count of elements : 474
Stream size : 16.6 KiB (0%)
Language : Swedish
Default : No
Forced : No

Text #27
ID : 29
Format : UTF-8
Codec ID : S_TEXT/UTF8
Codec ID/Info : UTF-8 Plain Text
Duration : 41 min 59 s
Bit rate : 136 b/s
Count of elements : 574
Stream size : 41.8 KiB (0%)
Language : Thai
Default : No
Forced : No

Text #28
ID : 30
Format : UTF-8
Codec ID : S_TEXT/UTF8
Codec ID/Info : UTF-8 Plain Text
Duration : 41 min 59 s
Bit rate : 60 b/s
Count of elements : 574
Stream size : 18.7 KiB (0%)
Language : Turkish
Default : No
Forced : No

Text #29
ID : 31
Format : UTF-8
Codec ID : S_TEXT/UTF8
Codec ID/Info : UTF-8 Plain Text
Duration : 41 min 59 s
Bit rate : 82 b/s
Count of elements : 572
Stream size : 25.3 KiB (0%)
Language : Vietnamese
Default : No
Forced : No

Text #30
ID : 32
Format : UTF-8
Codec ID : S_TEXT/UTF8
Codec ID/Info : UTF-8 Plain Text
Duration : 41 min 59 s
Bit rate : 55 b/s
Count of elements : 574
Stream size : 17.0 KiB (0%)
Title : Simplified
Language : Chinese
Default : No
Forced : No

Text #31
ID : 33
Format : UTF-8
Codec ID : S_TEXT/UTF8
Codec ID/Info : UTF-8 Plain Text
Duration : 41 min 59 s
Bit rate : 60 b/s
Count of elements : 574
Stream size : 18.6 KiB (0%)
Title : Traditional
Language : Chinese
Default : No
Forced : No

 

Leave a Reply

Your email address will not be published. Required fields are marked *