Batman v Superman: Dawn of Justice | 720p & 1080p & 2160p x265-BvS

Fearing that the actions of Superman are left unchecked, Batman takes on the Man of Steel, while the world wrestles with what kind of a hero it really needs.

Links: iMDB | Trailer

Note: In English with English/French/German/Spanish Selectable Subtitles

DOWNLOAD

VIP (GOOGLE DRIVE)

This content is reserved for registered users. Sign up here o login to be able to see it.

FREE

  • Batman v Superman Dawn of Justice (2016) UE RM (2160p BluRay x265 10bit HDR Tigole) (ONLY VIP)

NFO

Batman v Superman Dawn of Justice (2016) UE RM (2160p BluRay x265 10bit HDR Tigole)

General
Unique ID : 210820099486579572470644052300667153896 (0x9E9A796850F720401B44DFECC821EDE8)
Complete name : Batman v Superman Dawn of Justice (2016) UE RM (2160p BluRay x265 10bit HDR Tigole).mkv
Format : Matroska
Format version : Version 4
File size : 26.9 GiB
Duration : 3 h 2 min
Overall bit rate : 21.1 Mb/s
Movie name : Batman v Superman: Dawn of Justice
Encoded date : UTC 2021-04-12 18:56:51
Writing application : mkvmerge v55.0.0 (‘Waiting For Space’) 64-bit
Writing library : libebml v1.4.2 + libmatroska v1.6.4

Video
ID : 1
Format : HEVC
Format/Info : High Efficiency Video Coding
Format profile : Main [email protected]@Main
HDR format : SMPTE ST 2086, HDR10 compatible
Codec ID : V_MPEGH/ISO/HEVC
Duration : 3 h 2 min
Bit rate : 20.0 Mb/s
Width : 3 840 pixels
Height : 2 160 pixels
Display aspect ratio : 16:9
Frame rate mode : Constant
Frame rate : 23.976 (24000/1001) FPS
Color space : YUV
Chroma subsampling : 4:2:0
Bit depth : 10 bits
Bits/(Pixel*Frame) : 0.101
Stream size : 25.5 GiB (95%)
Writing library : x265M – 3.4+35-772bb4c84:[Windows][GCC 10.2.0][64 bit] 10bit
Encoding settings : cpuid=1111039 / frame-threads=3 / numa-pools=8 / wpp / no-pmode / no-pme / no-psnr / no-ssim / log-level=2 / input-csp=1 / input-res=3840×2160 / interlace=0 / total-frames=262625 / level-idc=0 / high-tier=1 / uhd-bd=0 / ref=4 / no-allow-non-conformance / repeat-headers / annexb / aud / no-hrd / info / hash=0 / no-temporal-layers / open-gop / min-keyint=23 / keyint=250 / gop-lookahead=0 / bframes=4 / b-adapt=2 / b-pyramid / bframe-bias=0 / rc-lookahead=25 / lookahead-slices=4 / scenecut=40 / hist-scenecut=0 / radl=0 / no-splice / no-intra-refresh / ctu=64 / min-cu-size=8 / rect / no-amp / max-tu-size=32 / tu-inter-depth=1 / tu-intra-depth=1 / limit-tu=0 / rdoq-level=2 / dynamic-rd=0.00 / no-ssim-rd / signhide / no-tskip / nr-intra=0 / nr-inter=0 / no-constrained-intra / strong-intra-smoothing / max-merge=3 / limit-refs=3 / limit-modes / me=3 / subme=3 / merange=57 / temporal-mvp / no-frame-dup / no-hme / weightp / no-weightb / no-analyze-src-pics / deblock=0:0 / no-sao / no-sao-non-deblock / rd=4 / selective-sao=0 / no-early-skip / rskip / no-fast-intra / no-tskip-fast / no-cu-lossless / no-b-intra / no-splitrd-skip / rdpenalty=0 / psy-rd=2.00 / psy-rdoq=1.00 / no-rd-refine / no-lossless / cbqpoffs=0 / crqpoffs=0 / rc=abr / bitrate=20000 / qcomp=0.60 / qpstep=4 / stats-write=0 / stats-read=2 / cplxblur=20.0 / qblur=0.5 / ipratio=1.40 / pbratio=1.30 / aq-mode=2 / aq-strength=1.00 / cutree / zone-count=0 / no-strict-cbr / qg-size=32 / no-rc-grain / qpmax=69 / qpmin=0 / no-const-vbv / sar=0 / overscan=0 / videoformat=5 / range=0 / colorprim=9 / transfer=16 / colormatrix=9 / chromaloc=0 / display-window=0 / master-display=G(13250,34500)B(7500,3000)R(34000,16000)WP(15635,16450)L(40000000,50) / cll=699,530 / min-luma=0 / max-luma=1023 / log2-max-poc-lsb=8 / vui-timing-info / vui-hrd-info / slices=1 / no-opt-qp-pps / no-opt-ref-list-length-pps / no-multi-pass-opt-rps / scenecut-bias=0.05 / hist-threshold=0.03 / no-opt-cu-delta-qp / aq-motion / hdr10 / hdr10-opt / no-dhdr10-opt / no-idr-recovery-sei / analysis-reuse-level=0 / analysis-save-reuse-level=0 / analysis-load-reuse-level=0 / scale-factor=0 / refine-intra=0 / refine-inter=0 / refine-mv=1 / refine-ctu-distortion=0 / no-limit-sao / ctu-info=0 / no-lowpass-dct / refine-analysis-type=0 / copy-pic=1 / max-ausize-factor=1.0 / no-dynamic-refine / no-single-sei / no-hevc-aq / no-svt / no-field / qp-adaptation-range=1.00 / scenecut-aware-qp=0conformance-window-offsets / right=0 / bottom=0 / decoder-max-rate=0 / no-vbv-live-multi-pass
Default : Yes
Forced : No
Color range : Limited
Color primaries : BT.2020
Transfer characteristics : PQ
Matrix coefficients : BT.2020 non-constant
Mastering display color primaries : Display P3
Mastering display luminance : min: 0.0050 cd/m2, max: 4000 cd/m2
Maximum Content Light Level : 699 cd/m2
Maximum Frame-Average Light Level : 530 cd/m2

Audio #1
ID : 2
Format : AAC LC
Format/Info : Advanced Audio Codec Low Complexity
Codec ID : A_AAC-2
Duration : 3 h 2 min
Bit rate : 875 kb/s
Channel(s) : 8 channels
Channel layout : C L R Ls Rs Lb Rb LFE
Sampling rate : 48.0 kHz
Frame rate : 46.875 FPS (1024 SPF)
Compression mode : Lossy
Delay relative to video : 20 ms
Stream size : 1.12 GiB (4%)
Language : English
Default : Yes
Forced : No

Audio #2
ID : 3
Format : AAC LC SBR
Format/Info : Advanced Audio Codec Low Complexity with Spectral Band Replication
Commercial name : HE-AAC
Format settings : Explicit
Codec ID : A_AAC-2
Duration : 3 h 2 min
Bit rate : 66.2 kb/s
Channel(s) : 2 channels
Channel layout : L R
Sampling rate : 48.0 kHz
Frame rate : 23.438 FPS (2048 SPF)
Compression mode : Lossy
Delay relative to video : 40 ms
Stream size : 85.9 MiB (0%)
Title : Commentary
Language : English
Default : No
Forced : No

Text #1
ID : 4
Format : VobSub
Muxing mode : zlib
Codec ID : S_VOBSUB
Codec ID/Info : Picture based subtitle format used on DVDs
Duration : 2 h 53 min
Bit rate : 7 794 b/s
Count of elements : 1856
Stream size : 9.67 MiB (0%)
Language : English
Default : No
Forced : No

Text #2
ID : 5
Format : VobSub
Muxing mode : zlib
Codec ID : S_VOBSUB
Codec ID/Info : Picture based subtitle format used on DVDs
Duration : 2 h 53 min
Bit rate : 3 501 b/s
Count of elements : 1622
Stream size : 4.34 MiB (0%)
Language : Arabic
Default : No
Forced : No

Text #3
ID : 6
Format : VobSub
Muxing mode : zlib
Codec ID : S_VOBSUB
Codec ID/Info : Picture based subtitle format used on DVDs
Duration : 3 h 2 min
Bit rate : 6 433 b/s
Count of elements : 1623
Stream size : 8.39 MiB (0%)
Language : Bulgarian
Default : No
Forced : No

Text #4
ID : 7
Format : VobSub
Muxing mode : zlib
Codec ID : S_VOBSUB
Codec ID/Info : Picture based subtitle format used on DVDs
Duration : 3 h 1 min
Bit rate : 4 160 b/s
Count of elements : 1632
Stream size : 5.42 MiB (0%)
Language : Chinese
Default : No
Forced : No

Text #5
ID : 8
Format : VobSub
Muxing mode : zlib
Codec ID : S_VOBSUB
Codec ID/Info : Picture based subtitle format used on DVDs
Duration : 3 h 2 min
Bit rate : 6 138 b/s
Count of elements : 1511
Stream size : 8.00 MiB (0%)
Language : Croatian
Default : No
Forced : No

Text #6
ID : 9
Format : VobSub
Muxing mode : zlib
Codec ID : S_VOBSUB
Codec ID/Info : Picture based subtitle format used on DVDs
Duration : 3 h 2 min
Bit rate : 5 958 b/s
Count of elements : 1610
Stream size : 7.76 MiB (0%)
Language : Czech
Default : No
Forced : No

Text #7
ID : 10
Format : VobSub
Muxing mode : zlib
Codec ID : S_VOBSUB
Codec ID/Info : Picture based subtitle format used on DVDs
Duration : 3 h 2 min
Bit rate : 5 980 b/s
Count of elements : 1477
Stream size : 7.79 MiB (0%)
Language : Danish
Default : No
Forced : No

Text #8
ID : 11
Format : VobSub
Muxing mode : zlib
Codec ID : S_VOBSUB
Codec ID/Info : Picture based subtitle format used on DVDs
Duration : 3 h 2 min
Bit rate : 5 563 b/s
Count of elements : 1406
Stream size : 7.25 MiB (0%)
Language : Dutch
Default : No
Forced : No

Text #9
ID : 12
Format : VobSub
Muxing mode : zlib
Codec ID : S_VOBSUB
Codec ID/Info : Picture based subtitle format used on DVDs
Duration : 3 h 2 min
Bit rate : 5 434 b/s
Count of elements : 1612
Stream size : 7.08 MiB (0%)
Language : Estonian
Default : No
Forced : No

Text #10
ID : 13
Format : VobSub
Muxing mode : zlib
Codec ID : S_VOBSUB
Codec ID/Info : Picture based subtitle format used on DVDs
Duration : 3 h 2 min
Bit rate : 5 865 b/s
Count of elements : 1505
Stream size : 7.64 MiB (0%)
Language : Finnish
Default : No
Forced : No

Text #11
ID : 14
Format : VobSub
Muxing mode : zlib
Codec ID : S_VOBSUB
Codec ID/Info : Picture based subtitle format used on DVDs
Duration : 3 h 1 min
Bit rate : 6 206 b/s
Count of elements : 1600
Stream size : 8.08 MiB (0%)
Language : French
Default : No
Forced : No

Text #12
ID : 15
Format : VobSub
Muxing mode : zlib
Codec ID : S_VOBSUB
Codec ID/Info : Picture based subtitle format used on DVDs
Duration : 3 h 2 min
Bit rate : 8 576 b/s
Count of elements : 1958
Stream size : 11.2 MiB (0%)
Language : German
Default : No
Forced : No

Text #13
ID : 16
Format : VobSub
Muxing mode : zlib
Codec ID : S_VOBSUB
Codec ID/Info : Picture based subtitle format used on DVDs
Duration : 3 h 2 min
Bit rate : 6 876 b/s
Count of elements : 1604
Stream size : 8.96 MiB (0%)
Language : Greek
Default : No
Forced : No

Text #14
ID : 17
Format : VobSub
Muxing mode : zlib
Codec ID : S_VOBSUB
Codec ID/Info : Picture based subtitle format used on DVDs
Duration : 3 h 2 min
Bit rate : 5 291 b/s
Count of elements : 1630
Stream size : 6.90 MiB (0%)
Language : Hebrew
Default : No
Forced : No

Text #15
ID : 18
Format : VobSub
Muxing mode : zlib
Codec ID : S_VOBSUB
Codec ID/Info : Picture based subtitle format used on DVDs
Duration : 3 h 2 min
Bit rate : 5 865 b/s
Count of elements : 1610
Stream size : 7.65 MiB (0%)
Language : Hungarian
Default : No
Forced : No

Text #16
ID : 19
Format : VobSub
Muxing mode : zlib
Codec ID : S_VOBSUB
Codec ID/Info : Picture based subtitle format used on DVDs
Duration : 3 h 2 min
Bit rate : 6 347 b/s
Count of elements : 1607
Stream size : 8.27 MiB (0%)
Language : Icelandic
Default : No
Forced : No

Text #17
ID : 20
Format : VobSub
Muxing mode : zlib
Codec ID : S_VOBSUB
Codec ID/Info : Picture based subtitle format used on DVDs
Duration : 2 h 53 min
Bit rate : 7 632 b/s
Count of elements : 1995
Stream size : 9.47 MiB (0%)
Language : Italian
Default : No
Forced : No

Text #18
ID : 21
Format : VobSub
Muxing mode : zlib
Codec ID : S_VOBSUB
Codec ID/Info : Picture based subtitle format used on DVDs
Duration : 2 h 52 min
Bit rate : 4 963 b/s
Count of elements : 1833
Stream size : 6.14 MiB (0%)
Language : Japanese
Default : No
Forced : No

Text #19
ID : 22
Format : VobSub
Muxing mode : zlib
Codec ID : S_VOBSUB
Codec ID/Info : Picture based subtitle format used on DVDs
Duration : 3 h 1 min
Bit rate : 4 979 b/s
Count of elements : 1632
Stream size : 6.48 MiB (0%)
Language : Korean
Default : No
Forced : No

Text #20
ID : 23
Format : VobSub
Muxing mode : zlib
Codec ID : S_VOBSUB
Codec ID/Info : Picture based subtitle format used on DVDs
Duration : 3 h 2 min
Bit rate : 5 582 b/s
Count of elements : 1619
Stream size : 7.28 MiB (0%)
Language : Latvian
Default : No
Forced : No

Text #21
ID : 24
Format : VobSub
Muxing mode : zlib
Codec ID : S_VOBSUB
Codec ID/Info : Picture based subtitle format used on DVDs
Duration : 3 h 2 min
Bit rate : 6 135 b/s
Count of elements : 1615
Stream size : 8.00 MiB (0%)
Language : Lithuanian
Default : No
Forced : No

Text #22
ID : 25
Format : VobSub
Muxing mode : zlib
Codec ID : S_VOBSUB
Codec ID/Info : Picture based subtitle format used on DVDs
Duration : 3 h 2 min
Bit rate : 6 187 b/s
Count of elements : 1600
Stream size : 8.06 MiB (0%)
Language : Norwegian Bokmal
Default : No
Forced : No

Text #23
ID : 26
Format : VobSub
Muxing mode : zlib
Codec ID : S_VOBSUB
Codec ID/Info : Picture based subtitle format used on DVDs
Duration : 3 h 1 min
Bit rate : 5 711 b/s
Count of elements : 1571
Stream size : 7.43 MiB (0%)
Language : Polish
Default : No
Forced : No

Text #24
ID : 27
Format : VobSub
Muxing mode : zlib
Codec ID : S_VOBSUB
Codec ID/Info : Picture based subtitle format used on DVDs
Duration : 3 h 2 min
Bit rate : 6 309 b/s
Count of elements : 1612
Stream size : 8.22 MiB (0%)
Language : Portuguese
Default : No
Forced : No

Text #25
ID : 28
Format : VobSub
Muxing mode : zlib
Codec ID : S_VOBSUB
Codec ID/Info : Picture based subtitle format used on DVDs
Duration : 3 h 2 min
Bit rate : 6 101 b/s
Count of elements : 1612
Stream size : 7.95 MiB (0%)
Language : Romanian
Default : No
Forced : No

Text #26
ID : 29
Format : VobSub
Muxing mode : zlib
Codec ID : S_VOBSUB
Codec ID/Info : Picture based subtitle format used on DVDs
Duration : 3 h 2 min
Bit rate : 6 622 b/s
Count of elements : 1625
Stream size : 8.63 MiB (0%)
Language : Russian
Default : No
Forced : No

Text #27
ID : 30
Format : VobSub
Muxing mode : zlib
Codec ID : S_VOBSUB
Codec ID/Info : Picture based subtitle format used on DVDs
Duration : 3 h 2 min
Bit rate : 5 511 b/s
Count of elements : 1593
Stream size : 7.18 MiB (0%)
Language : Slovenian
Default : No
Forced : No

Text #28
ID : 31
Format : VobSub
Muxing mode : zlib
Codec ID : S_VOBSUB
Codec ID/Info : Picture based subtitle format used on DVDs
Duration : 3 h 1 min
Bit rate : 6 266 b/s
Count of elements : 1574
Stream size : 8.16 MiB (0%)
Language : Spanish
Default : No
Forced : No

Text #29
ID : 32
Format : VobSub
Muxing mode : zlib
Codec ID : S_VOBSUB
Codec ID/Info : Picture based subtitle format used on DVDs
Duration : 3 h 1 min
Bit rate : 5 984 b/s
Count of elements : 1593
Stream size : 7.79 MiB (0%)
Language : Swedish
Default : No
Forced : No

Text #30
ID : 33
Format : VobSub
Muxing mode : zlib
Codec ID : S_VOBSUB
Codec ID/Info : Picture based subtitle format used on DVDs
Duration : 3 h 2 min
Bit rate : 6 043 b/s
Count of elements : 1618
Stream size : 7.88 MiB (0%)
Language : Thai
Default : No
Forced : No

Text #31
ID : 34
Format : VobSub
Muxing mode : zlib
Codec ID : S_VOBSUB
Codec ID/Info : Picture based subtitle format used on DVDs
Duration : 3 h 2 min
Bit rate : 6 294 b/s
Count of elements : 1613
Stream size : 8.20 MiB (0%)
Language : Turkish
Default : No
Forced : No

Menu
00:00:00.000 : en:Chapter 1
00:10:10.652 : en:Chapter 2
00:27:00.661 : en:Chapter 3
00:37:49.225 : en:Chapter 4
00:46:54.520 : en:Chapter 5
01:02:04.971 : en:Chapter 6
01:14:10.613 : en:Chapter 7
01:28:07.115 : en:Chapter 8
01:41:46.642 : en:Chapter 9
01:53:52.617 : en:Chapter 10
02:02:58.079 : en:Chapter 11
02:15:04.054 : en:Chapter 12
02:27:55.075 : en:Chapter 13
02:36:51.444 : en:Chapter 14
02:48:28.348 : en:Chapter 15
02:54:43.765 : en:Chapter 16

Leave a Reply

Your email address will not be published. Required fields are marked *