Batman Soul of the Dragon 2021 2160p WEB-DL DDP5.1 H.265-ROCCaTY [G.DRIVE]

Batman, Bronze Tiger, Lady Shiva, and Richard Dragon join forces when they come to realize that they share a common acquaintance. The Martial Arts Master that trained them has been missing for a number of years and under mysterious circumstances. When a cursed relic resurfaces, the mystery of their dead master re-opens and Batman and his former classmates must face-off in the ultimate test of their Martial Arts kills to gain control of this dangerous relic.

Links: iMDB | Trailer

Batman.Soul.of.the.Dragon.2021.2160p.WEB-DL.DDP5.1.H.265-ROCCaT
MKV-HEVC  | 3840×2160 | English 5.1 |  Subs.ENG/FRE/GER/SPA | 9.39GB

This content is reserved for registered users. Sign up here o login to be able to see it.

MEGA – 1FICHIER

2160p.WEB-DL-ROCCaT

General
Unique ID : 66541000196127345350822335910424014967 (0x320F549A626BC08ED2C4BE35B236F077)
Complete name : B.S.o.t.D.2021.2160p.WEB-DL.DDP5.1.H.265-ROCCaT.mkv
Format : Matroska
Format version : Version 4
File size : 9.39 GiB
Duration : 1 h 22 min
Overall bit rate : 16.2 Mb/s
Encoded date : UTC 2021-01-12 08:46:24
Writing application : mkvmerge v48.0.0 (‘Fortress Around Your Heart’) 64-bit
Writing library : libebml v1.4.0 + libmatroska v1.6.0

Video
ID : 1
Format : HEVC
Format/Info : High Efficiency Video Coding
Format profile : [email protected]@Main
Codec ID : V_MPEGH/ISO/HEVC
Duration : 1 h 22 min
Bit rate : 15.9 Mb/s
Width : 3 840 pixels
Height : 2 160 pixels
Display aspect ratio : 16:9
Frame rate mode : Constant
Frame rate : 23.976 (24000/1001) FPS
Original frame rate : 23.976 (23976/1000) FPS
Color space : YUV
Chroma subsampling : 4:2:0
Bit depth : 8 bits
Bits/(Pixel*Frame) : 0.080
Stream size : 9.24 GiB (98%)
Writing library : x265 3.0_RC+11-72188bd2f034:[Linux][GCC 4.9.2][64 bit] 8bit+10bit+12bit
Encoding settings : cpuid=1111039 / frame-threads=3 / wpp / no-pmode / no-pme / no-psnr / no-ssim / log-level=2 / input-csp=1 / input-res=3840×2160 / interlace=0 / total-frames=0 / level-idc=51 / high-tier=1 / uhd-bd=0 / ref=4 / no-allow-non-conformance / no-repeat-headers / annexb / no-aud / no-hrd / info / hash=0 / no-temporal-layers / no-open-gop / min-keyint=24 / keyint=48 / gop-lookahead=0 / bframes=3 / b-adapt=0 / no-b-pyramid / bframe-bias=0 / rc-lookahead=15 / lookahead-slices=8 / scenecut=0 / radl=0 / no-splice / no-intra-refresh / ctu=64 / min-cu-size=8 / no-rect / no-amp / max-tu-size=32 / tu-inter-depth=1 / tu-intra-depth=1 / limit-tu=0 / rdoq-level=0 / dynamic-rd=0.00 / no-ssim-rd / signhide / no-tskip / nr-intra=0 / nr-inter=0 / no-constrained-intra / strong-intra-smoothing / max-merge=2 / limit-refs=3 / no-limit-modes / me=1 / subme=2 / merange=57 / temporal-mvp / weightp / no-weightb / no-analyze-src-pics / deblock=0:0 / sao / no-sao-non-deblock / rd=2 / no-early-skip / rskip / fast-intra / no-tskip-fast / no-cu-lossless / no-b-intra / no-splitrd-skip / rdpenalty=0 / psy-rd=2.00 / psy-rdoq=0.00 / no-rd-refine / no-lossless / cbqpoffs=0 / crqpoffs=0 / rc=cbr / bitrate=16000 / qcomp=0.60 / qpstep=4 / stats-write=0 / stats-read=0 / vbv-maxrate=16000 / vbv-bufsize=32000 / vbv-init=0.9 / ipratio=1.40 / pbratio=1.30 / aq-mode=2 / aq-strength=1.00 / cutree / zone-count=0 / no-strict-cbr / qg-size=32 / no-rc-grain / qpmax=69 / qpmin=0 / no-const-vbv / sar=1 / overscan=0 / videoformat=5 / range=0 / colorprim=2 / transfer=2 / colormatrix=2 / chromaloc=0 / display-window=0 / max-cll=0,0 / min-luma=0 / max-luma=255 / log2-max-poc-lsb=8 / vui-timing-info / vui-hrd-info / slices=1 / no-opt-qp-pps / no-opt-ref-list-length-pps / no-multi-pass-opt-rps / scenecut-bias=0.05 / no-opt-cu-delta-qp / no-aq-motion / no-hdr / no-hdr-opt / no-dhdr10-opt / no-idr-recovery-sei / analysis-reuse-level=5 / scale-factor=0 / refine-intra=0 / refine-inter=0 / refine-mv=0 / refine-ctu-distortion=0 / no-limit-sao / ctu-info=0 / no-lowpass-dct / refine-analysis-type=0 / copy-pic=1 / max-ausize-factor=1.0 / no-dynamic-refine / no-single-sei / no-hevc-aq / qp-adaptation-range=1.00
Default : Yes
Forced : No

Audio
ID : 2
Format : E-AC-3
Format/Info : Enhanced AC-3
Commercial name : Dolby Digital Plus
Codec ID : A_EAC3
Duration : 1 h 22 min
Bit rate mode : Constant
Bit rate : 256 kb/s
Channel(s) : 6 channels
Channel layout : L R C LFE Ls Rs
Sampling rate : 48.0 kHz
Frame rate : 31.250 FPS (1536 SPF)
Compression mode : Lossy
Stream size : 152 MiB (2%)
Language : English
Service kind : Complete Main
Default : Yes
Forced : No

Text #1
ID : 3
Format : UTF-8
Codec ID : S_TEXT/UTF8
Codec ID/Info : UTF-8 Plain Text
Duration : 1 h 21 min
Bit rate : 36 b/s
Count of elements : 801
Stream size : 21.9 KiB (0%)
Language : Danish
Default : No
Forced : No

Text #2
ID : 4
Format : UTF-8
Codec ID : S_TEXT/UTF8
Codec ID/Info : UTF-8 Plain Text
Duration : 1 h 19 min
Bit rate : 42 b/s
Count of elements : 793
Stream size : 24.8 KiB (0%)
Language : German
Default : No
Forced : No

Text #3
ID : 5
Format : UTF-8
Codec ID : S_TEXT/UTF8
Codec ID/Info : UTF-8 Plain Text
Duration : 1 h 19 min
Bit rate : 35 b/s
Count of elements : 794
Stream size : 20.7 KiB (0%)
Language : English
Default : No
Forced : No

Text #4
ID : 6
Format : UTF-8
Codec ID : S_TEXT/UTF8
Codec ID/Info : UTF-8 Plain Text
Duration : 1 h 21 min
Bit rate : 34 b/s
Count of elements : 803
Stream size : 20.6 KiB (0%)
Language : Finnish
Default : No
Forced : No

Text #5
ID : 7
Format : UTF-8
Codec ID : S_TEXT/UTF8
Codec ID/Info : UTF-8 Plain Text
Duration : 1 h 21 min
Bit rate : 40 b/s
Count of elements : 803
Stream size : 24.2 KiB (0%)
Language : French
Default : No
Forced : No

Text #6
ID : 8
Format : UTF-8
Codec ID : S_TEXT/UTF8
Codec ID/Info : UTF-8 Plain Text
Duration : 1 h 21 min
Bit rate : 34 b/s
Count of elements : 794
Stream size : 20.9 KiB (0%)
Language : Dutch
Default : No
Forced : No

Text #7
ID : 9
Format : UTF-8
Codec ID : S_TEXT/UTF8
Codec ID/Info : UTF-8 Plain Text
Duration : 1 h 21 min
Bit rate : 35 b/s
Count of elements : 802
Stream size : 20.9 KiB (0%)
Language : Norwegian
Default : No
Forced : No

Text #8
ID : 10
Format : UTF-8
Codec ID : S_TEXT/UTF8
Codec ID/Info : UTF-8 Plain Text
Duration : 1 h 21 min
Bit rate : 36 b/s
Count of elements : 807
Stream size : 22.0 KiB (0%)
Language : Portuguese
Default : No
Forced : No

Text #9
ID : 11
Format : UTF-8
Codec ID : S_TEXT/UTF8
Codec ID/Info : UTF-8 Plain Text
Duration : 1 h 21 min
Bit rate : 59 b/s
Count of elements : 808
Stream size : 35.5 KiB (0%)
Language : Russian
Default : No
Forced : No

Text #10
ID : 12
Format : UTF-8
Codec ID : S_TEXT/UTF8
Codec ID/Info : UTF-8 Plain Text
Duration : 1 h 21 min
Bit rate : 35 b/s
Count of elements : 800
Stream size : 21.4 KiB (0%)
Language : Swedish
Default : No
Forced : No

 

We choose a different approach. Will you support it? I am BvSRips, I make my own rips of movies and series in 1080p x265 in reduced size for those users who do not have a high speed internet. We believe that everyone should be able to enjoy TV or movie entertainment, but what if it can't be seen in my country? What if you don't have subtitles? Do I have to pay $ 10 or $ 15 on each streaming platform? That is why this website was born by sharing files on free servers (mega and 1fichier). We do not place advertising or popups because they are intrusive for the user, we want you to enjoy this website. But also the website and the tools used consume an expense that we assume and that now you can support us.You can become a VIP member and download without limit, read more here. I hope I can count on your help.

You may also like...

Leave a Reply

Your email address will not be published. Required fields are marked *