A Discovery of Witches All Season | 720p & 1080p NF WEBRip x265-BvS

A Discovery of Witches

In a world where witches, vampires and daemons live discreetly among humans, Diana Bishop is the last in one long line of distinguished witches. Unwilling to embrace her heritage she has immersed herself in her career as a historian. Her particular interest is alchemy and she visits Oxford to research some of Elias Ashmole’s papers. She requests Ashmole 782 and as soon as she receives it she knows there is something uncanny about it; when she opens it she is shocked. She learns that 782 has been presumed lost for a very long time and that each species of Creature desires it. She is besieged and threatened and knows that, to protect herself, she must uncover all the mysteries of 782. She encounters the enigmatic vampire, Matthew Clairmont, who offers to help her; their mutual attraction is immediate, undeniable and inexplicable because they both know that witches and vampires are not supposed to trust each other. Diana makes her choice and accepts Matthew’s help. This precipitates them…
Dark times are coming in the second season of the hit supernatural Sky Original drama.

Links: HOMEPAGE – IMDB

Note: In English with English Subtitles

DOWNLOAD

VIP (GOOGLE DRIVE)

This content is reserved for registered users. Sign up here o login to be able to see it.

FREE

NFO

WEBRip.x264-ION10

General
Complete name : A.Discovery.of.Witches.S02E01.WEBRip.x264-ION10.mp4
Format : MPEG-4
Format profile : Base Media
Codec ID : isom (isom/iso2/avc1/mp41)
File size : 427 MiB
Duration : 44 min 9 s
Overall bit rate : 1 353 kb/s
Movie name : A.Discovery.of.Witches.S02E01.WEBRip.x264-ION10
Encoded date : UTC 2021-01-08 17:09:25
Tagged date : UTC 2021-01-08 17:09:25
Writing application : Lavf58.0.101
Comment : A.Discovery.of.Witches.S02E01.WEBRip.x264-ION10

Video
ID : 1
Format : AVC
Format/Info : Advanced Video Codec
Format profile : [email protected]
Format settings : CABAC / 5 Ref Frames
Format settings, CABAC : Yes
Format settings, Reference frames : 5 frames
Codec ID : avc1
Codec ID/Info : Advanced Video Coding
Duration : 44 min 9 s
Bit rate : 1 100 kb/s
Width : 720 pixels
Height : 360 pixels
Display aspect ratio : 2.000
Frame rate mode : Constant
Frame rate : 25.000 FPS
Color space : YUV
Chroma subsampling : 4:2:0
Bit depth : 8 bits
Scan type : Progressive
Bits/(Pixel*Frame) : 0.170
Stream size : 344 MiB (81%)
Title : A.Discovery.of.Witches.S02E01.WEBRip.x264-ION10
Writing library : x264 core 148 r2795M aaa9aa8
Encoding settings : cabac=1 / ref=5 / deblock=1:-1:-1 / analyse=0x3:0x113 / me=umh / subme=9 / psy=1 / psy_rd=1.00:0.15 / mixed_ref=1 / me_range=16 / chroma_me=1 / trellis=2 / 8x8dct=1 / cqm=0 / deadzone=21,11 / fast_pskip=1 / chroma_qp_offset=-3 / threads=24 / lookahead_threads=2 / sliced_threads=0 / nr=0 / decimate=1 / interlaced=0 / bluray_compat=0 / constrained_intra=0 / bframes=3 / b_pyramid=2 / b_adapt=2 / b_bias=0 / direct=3 / weightb=1 / open_gop=0 / weightp=2 / keyint=250 / keyint_min=25 / scenecut=40 / intra_refresh=0 / rc_lookahead=50 / rc=abr / mbtree=1 / bitrate=1100 / ratetol=1.0 / qcomp=0.60 / qpmin=0 / qpmax=69 / qpstep=4 / ip_ratio=1.40 / aq=1:1.00
Encoded date : UTC 2021-01-08 17:09:25
Tagged date : UTC 2021-01-08 17:09:25
Codec configuration box : avcC

Audio
ID : 2
Format : AAC LC
Format/Info : Advanced Audio Codec Low Complexity
Codec ID : mp4a-40-2
Duration : 44 min 9 s
Bit rate mode : Constant
Bit rate : 256 kb/s
Channel(s) : 2 channels
Channel layout : L R
Sampling rate : 48.0 kHz
Frame rate : 46.875 FPS (1024 SPF)
Compression mode : Lossy
Stream size : 80.8 MiB (19%)
Title : A.Discovery.of.Witches.S02E01.WEBRip.x264-ION10
Language : English
Default : Yes
Alternate group : 1
Encoded date : UTC 2021-01-08 17:09:25
Tagged date : UTC 2021-01-08 17:09:25

720p.x265-BvS

 

1080p.x265-BvS

General
Unique ID : 198155179814480667807616563242234460590 (0x95134CA85CE976AF866FAB50920EB9AE)
Complete name : A.Discovery.Of.Witches.s02e01.1080p.web-dl.x265-BvS.mkv
Format : Matroska
Format version : Version 4
File size : 263 MiB
Duration : 44 min 9 s
Overall bit rate : 834 kb/s
Movie name : BvSRips
Encoded date : UTC 2021-01-09 00:52:23
Writing application : mkvmerge v51.0.0 (‘I Wish’) 64-bit
Writing library : libebml v1.4.0 + libmatroska v1.6.2

Video
ID : 1
Format : HEVC
Format/Info : High Efficiency Video Coding
Format profile : [email protected]@Main
Codec ID : V_MPEGH/ISO/HEVC
Duration : 44 min 9 s
Bit rate : 576 kb/s
Width : 1 920 pixels
Height : 1 080 pixels
Display aspect ratio : 16:9
Frame rate mode : Constant
Frame rate : 25.000 FPS
Color space : YUV
Chroma subsampling : 4:2:0
Bit depth : 8 bits
Bits/(Pixel*Frame) : 0.011
Stream size : 182 MiB (69%)
Writing library : x265 1.5:[Windows][GCC 4.7.0][32 bit] Encoding settings : wpp / ctu=64 / tu-intra-depth=1 / tu-inter-depth=1 / me=1 / subme=2 / merange=57 / no-rect / no-amp / max-merge=2 / temporal-mvp / early-skip / no-fast-cbf / rdpenalty=0 / no-tskip / no-tskip-fast / strong-intra-smoothing / no-lossless / no-cu-lossless / no-constrained-intra / fast-intra / open-gop / interlace=0 / keyint=250 / min-keyint=25 / scenecut=40 / rc-lookahead=15 / bframes=4 / bframe-bias=0 / b-adapt=0 / ref=1 / weightp / no-weightb / aq-mode=0 / aq-strength=0.00 / cbqpoffs=0 / crqpoffs=0 / rd=2 / psy-rd=0.00 / psy-rdoq=0.00 / signhide / lft / sao / no-sao-non-deblock / b-pyramid / no-cutree / rc=crf / crf=25.0 / qcomp=0.60 / qpmin=0 / qpmax=51 / qpstep=4 / ipratio=1.40 / pbratio=1.30
Default : Yes
Forced : No
Color range : Limited
Color primaries : BT.709
Transfer characteristics : BT.709
Matrix coefficients : BT.709

Audio
ID : 2
Format : AAC LC SBR
Format/Info : Advanced Audio Codec Low Complexity with Spectral Band Replication
Commercial name : HE-AAC
Format settings : NBC
Codec ID : A_AAC-5
Duration : 44 min 9 s
Bit rate : 256 kb/s
Channel(s) : 6 channels
Channel layout : C L R Ls Rs LFE
Sampling rate : 48.0 kHz
Frame rate : 23.438 FPS (2048 SPF)
Compression mode : Lossy
Stream size : 80.8 MiB (31%)
Language : English
Default : Yes
Forced : No

Text
ID : 3
Format : ASS
Codec ID : S_TEXT/ASS
Codec ID/Info : Advanced Sub Station Alpha
Duration : 4 s 500 ms
Bit rate : 149 b/s
Count of elements : 1
Compression mode : Lossless
Stream size : 84.0 Bytes (0%)
Default : Yes
Forced : No

Leave a Reply

Your email address will not be published. Required fields are marked *