24: Legacy All Season | 720p & 1080p AMZN WEBRip x265-BvS

Story follows a military hero’s return to the U.S. and the trouble that follows him back — compelling him to ask CTU for help in saving his life, and stopping what potentially could be one of the largest-scale terror attacks on American soil. Told in real time with split screens, each episode will represent one hour of an eventful day.

Links: HOMEPAGE – TV.com

Note: In English with English Selectable Subtitles

DOWNLOAD

VIP (GOOGLE DRIVE)

This content is reserved for registered users. Sign up here o login to be able to see it.

FREE

  • SEASON 1: 720p x265 (ONLY VIP)
  • SEASON 1: 1080p x265 (ONLY VIP)

NFO

720p.x265-BvS

General
Unique ID : 204588640302060414483666037713093227985 (0x99EA56BFC93160E9A17FED9BB45B75D1)
Complete name : 24.Legacy.S01E01.12.00.P.M-1.00.P.M.720p.WEB-DL.2CH.x265.HEVC.mkv
Format : Matroska
Format version : Version 4
File size : 225 MiB
Duration : 46 min 27 s
Overall bit rate : 678 kb/s
Movie name : 24.Legacy.S01E01.12.00.P.M-1.00.P.M.720p.WEB-DL.2CH.x265.HEVC-PSA
Encoded date : UTC 2017-02-06 15:56:45
Writing application : mkvmerge v9.8.0 (‘Kuglblids’) 64bit
Writing library : libebml v1.3.4 + libmatroska v1.4.5

Video
ID : 1
Format : HEVC
Format/Info : High Efficiency Video Coding
Format profile : [email protected]@Main
Codec ID : V_MPEGH/ISO/HEVC
Duration : 46 min 27 s
Bit rate : 606 kb/s
Width : 1 280 pixels
Height : 720 pixels
Display aspect ratio : 16:9
Frame rate mode : Constant
Frame rate : 23.976 (24000/1001) FPS
Color space : YUV
Chroma subsampling : 4:2:0
Bit depth : 8 bits
Bits/(Pixel*Frame) : 0.027
Stream size : 201 MiB (89%)
Default : Yes
Forced : No
Color range : Limited
Color primaries : BT.709
Transfer characteristics : BT.709
Matrix coefficients : BT.709

Audio
ID : 2
Format : AAC LC SBR
Format/Info : Advanced Audio Codec Low Complexity with Spectral Band Replication
Commercial name : HE-AAC
Format settings : Explicit
Codec ID : A_AAC-2
Duration : 46 min 27 s
Bit rate : 70.4 kb/s
Channel(s) : 2 channels
Channel layout : L R
Sampling rate : 48.0 kHz
Frame rate : 23.438 FPS (2048 SPF)
Compression mode : Lossy
Delay relative to video : 23 ms
Stream size : 23.4 MiB (10%)
Default : Yes
Forced : No

Text
ID : 3
Format : UTF-8
Codec ID : S_TEXT/UTF8
Codec ID/Info : UTF-8 Plain Text
Duration : 46 min 22 s
Bit rate : 72 b/s
Count of elements : 897
Stream size : 24.8 KiB (0%)
Default : Yes
Forced : No

1080p.x265-BvS

General
Unique ID : 231320622471919603997233006399176020045 (0xAE06BB3A3B561DE98875A5077F9B904D)
Complete name : 24.Legacy.S01E01.12.00.P.M-1.00.P.M.1080p.WEB-DL.6CH.x265.HEVC.mkv
Format : Matroska
Format version : Version 4
File size : 555 MiB
Duration : 46 min 27 s
Overall bit rate : 1 671 kb/s
Movie name : 24.Legacy.S01E01.12.00.P.M-1.00.P.M.1080p.WEB-DL.6CH.x265.HEVC-PSA
Encoded date : UTC 2017-02-06 19:33:42
Writing application : mkvmerge v9.8.0 (‘Kuglblids’) 64bit
Writing library : libebml v1.3.4 + libmatroska v1.4.5

Video
ID : 1
Format : HEVC
Format/Info : High Efficiency Video Coding
Format profile : [email protected]@Main
Codec ID : V_MPEGH/ISO/HEVC
Duration : 46 min 27 s
Bit rate : 1 462 kb/s
Width : 1 920 pixels
Height : 1 080 pixels
Display aspect ratio : 16:9
Frame rate mode : Constant
Frame rate : 23.976 (24000/1001) FPS
Color space : YUV
Chroma subsampling : 4:2:0
Bit depth : 8 bits
Bits/(Pixel*Frame) : 0.029
Stream size : 486 MiB (87%)
Default : Yes
Forced : No
Color range : Limited
Color primaries : BT.709
Transfer characteristics : BT.709
Matrix coefficients : BT.709

Audio
ID : 2
Format : AAC LC SBR
Format/Info : Advanced Audio Codec Low Complexity with Spectral Band Replication
Commercial name : HE-AAC
Format settings : Explicit
Codec ID : A_AAC-2
Duration : 46 min 27 s
Bit rate : 208 kb/s
Channel(s) : 6 channels
Channel layout : C L R Ls Rs LFE
Sampling rate : 48.0 kHz
Frame rate : 23.438 FPS (2048 SPF)
Compression mode : Lossy
Delay relative to video : 23 ms
Stream size : 69.0 MiB (12%)
Default : Yes
Forced : No

Text
ID : 3
Format : UTF-8
Codec ID : S_TEXT/UTF8
Codec ID/Info : UTF-8 Plain Text
Duration : 46 min 22 s
Bit rate : 72 b/s
Count of elements : 897
Stream size : 24.8 KiB (0%)
Default : Yes
Forced : No

Leave a Reply

Your email address will not be published. Required fields are marked *