Welcome To The Blumhouse All Season | 720p & 1080p AMZN WEBRip x265-BvS

Released through a partnership between Blumhouse Productions and Amazon Studios, this new horror anthology features eight films ranging from sci-fi horror to psychological terror, and showcases everything we’ve come to love about the Blumhouse brand: Distinctive visuals, a blend of new and experienced faces onscreen, and a blend of new and experienced voices behind the camera. Each film presents a distinctive vision and unique perspective on common themes centered around family and love as redemptive or destructive forces.

Links: HOMEPAGE – TVDB

Note: In English With English/French/German/Spanish Selectable Subtitles

DOWNLOAD

VIP (GOOGLE DRIVE)

This content is reserved for registered users. Sign up here o login to be able to see it.

FREE

NFO

WEBRip.x264-ION10

General
Complete name  Welcome.To.The.Blumhouse.S01E01.WEBRip.x264-ION10.mp4
Format : MPEG-4
Format profile : Base Media
Codec ID : isom (isom/iso2/avc1/mp41)
File size : 916 MiB
Duration : 1 h 35 min
Overall bit rate : 1 347 kb/s
Movie name : Welcome.To.The.Blumhouse.S01E01.WEBRip.x264-ION10
Encoded date : UTC 2020-10-13 06:55:32
Tagged date : UTC 2020-10-13 06:55:32
Writing application : Lavf58.0.101
Comment : Welcome.To.The.Blumhouse.S01E01.WEBRip.x264-ION10

Video
ID : 1
Format : AVC
Format/Info : Advanced Video Codec
Format profile : [email protected]
Format settings : CABAC / 5 Ref Frames
Format settings, CABAC : Yes
Format settings, Reference frames : 5 frames
Codec ID : avc1
Codec ID/Info : Advanced Video Coding
Duration : 1 h 35 min
Bit rate : 1 100 kb/s
Width : 720 pixels
Height : 300 pixels
Display aspect ratio : 2.40:1
Frame rate mode : Constant
Frame rate : 23.976 (24000/1001) FPS
Color space : YUV
Chroma subsampling : 4:2:0
Bit depth : 8 bits
Scan type : Progressive
Bits/(Pixel*Frame) : 0.212
Stream size : 738 MiB (81%)
Title : Welcome.To.The.Blumhouse.S01E01.WEBRip.x264-ION10
Writing library : x264 core 148 r2795M aaa9aa8
Encoding settings : cabac=1 / ref=5 / deblock=1:-1:-1 / analyse=0x3:0x113 / me=umh / subme=9 / psy=1 / psy_rd=1.00:0.15 / mixed_ref=1 / me_range=16 / chroma_me=1 / trellis=2 / 8x8dct=1 / cqm=0 / deadzone=21,11 / fast_pskip=1 / chroma_qp_offset=-3 / threads=24 / lookahead_threads=2 / sliced_threads=0 / nr=0 / decimate=1 / interlaced=0 / bluray_compat=0 / constrained_intra=0 / bframes=3 / b_pyramid=2 / b_adapt=2 / b_bias=0 / direct=3 / weightb=1 / open_gop=0 / weightp=2 / keyint=250 / keyint_min=23 / scenecut=40 / intra_refresh=0 / rc_lookahead=50 / rc=abr / mbtree=1 / bitrate=1100 / ratetol=1.0 / qcomp=0.60 / qpmin=0 / qpmax=69 / qpstep=4 / ip_ratio=1.40 / aq=1:1.00
Encoded date : UTC 2020-10-13 06:55:32
Tagged date : UTC 2020-10-13 06:55:32
Codec configuration box : avcC

Audio
ID : 2
Format : AAC LC
Format/Info : Advanced Audio Codec Low Complexity
Codec ID : mp4a-40-2
Duration : 1 h 35 min
Bit rate mode : Constant
Bit rate : 256 kb/s
Channel(s) : 2 channels
Channel layout : L R
Sampling rate : 48.0 kHz
Frame rate : 46.875 FPS (1024 SPF)
Compression mode : Lossy
Stream size : 174 MiB (19%)
Title : Welcome.To.The.Blumhouse.S01E01.WEBRip.x264-ION10
Language : English
Default : Yes
Alternate group : 1
Encoded date : UTC 2020-10-13 06:55:32
Tagged date : UTC 2020-10-13 06:55:32

720p.x265-BvS

General
Unique ID : 316852679838413404864701493380462420868 (0xEE5F9B3D6CAF2982D88DCF2F7DC02384)
Complete name : Welcome.to.the.blumhouse.s01e01.720p.amzn.web-dl.x265-BvS.mkv
Format : Matroska
Format version : Version 4
File size : 293 MiB
Duration : 1 h 35 min
Overall bit rate : 430 kb/s
Movie name : BvSRips
Encoded date : UTC 2020-10-16 04:43:34
Writing application : mkvmerge v46.0.0 (‘No Deeper Escape’) 64-bit
Writing library : libebml v1.3.10 + libmatroska v1.5.2

Video
ID : 1
Format : HEVC
Format/Info : High Efficiency Video Coding
Format profile : [email protected]@Main
Codec ID : V_MPEGH/ISO/HEVC
Duration : 1 h 35 min
Bit rate : 300 kb/s
Width : 1 248 pixels
Height : 520 pixels
Display aspect ratio : 2.40:1
Frame rate mode : Constant
Frame rate : 23.976 (24000/1001) FPS
Color space : YUV
Chroma subsampling : 4:2:0
Bit depth : 8 bits
Bits/(Pixel*Frame) : 0.019
Stream size : 204 MiB (70%)
Writing library : x265 1.5:[Windows][GCC 4.7.0][32 bit] Encoding settings : wpp / ctu=64 / tu-intra-depth=1 / tu-inter-depth=1 / me=1 / subme=2 / merange=57 / no-rect / no-amp / max-merge=2 / temporal-mvp / early-skip / no-fast-cbf / rdpenalty=0 / no-tskip / no-tskip-fast / strong-intra-smoothing / no-lossless / no-cu-lossless / no-constrained-intra / fast-intra / open-gop / interlace=0 / keyint=240 / min-keyint=24 / scenecut=40 / rc-lookahead=15 / bframes=4 / bframe-bias=0 / b-adapt=0 / ref=1 / weightp / no-weightb / aq-mode=0 / aq-strength=0.00 / cbqpoffs=0 / crqpoffs=0 / rd=2 / psy-rd=0.00 / psy-rdoq=0.00 / signhide / lft / sao / no-sao-non-deblock / b-pyramid / no-cutree / rc=crf / crf=25.0 / qcomp=0.60 / qpmin=0 / qpmax=51 / qpstep=4 / ipratio=1.40 / pbratio=1.30
Default : Yes
Forced : No
Color range : Limited
Color primaries : BT.709
Transfer characteristics : BT.709
Matrix coefficients : BT.709

Audio
ID : 2
Format : AAC LC SBR
Format/Info : Advanced Audio Codec Low Complexity with Spectral Band Replication
Commercial name : HE-AAC
Format settings : NBC
Codec ID : A_AAC-5
Duration : 1 h 35 min
Bit rate : 128 kb/s
Channel(s) : 2 channels
Channel layout : L R
Sampling rate : 44.1 kHz
Frame rate : 21.533 FPS (2048 SPF)
Compression mode : Lossy
Stream size : 87.0 MiB (30%)
Language : English
Default : Yes
Forced : No

Text
ID : 3
Format : ASS
Codec ID : S_TEXT/ASS
Codec ID/Info : Advanced Sub Station Alpha
Duration : 4 s 500 ms
Bit rate : 149 b/s
Count of elements : 1
Compression mode : Lossless
Stream size : 84.0 Bytes (0%)
Default : Yes
Forced : No

Menu
00:00:00.000 : en:Amazon Original
00:00:21.188 : en:Memories of Kayla
00:01:25.252 : en:Title Sequence
00:01:30.132 : en:Kayla is in a car
00:03:30.085 : en:Kayla comes to dad’s place
00:05:19.236 : en:Kayla finds Brittany
00:07:24.152 : en:Jay pulls over his car
00:09:20.143 : en:Jay looks for Brittany
00:12:10.146 : en:Jay comes to Rebecca’s office
00:14:04.260 : en:Kayla is at mom’s home
00:16:56.098 : en:Jay and Rebecca talk about Kayla
00:21:35.169 : en:Making a breakfast
00:26:58.200 : en:Rebecca is alone at home
00:32:04.214 : en:Kayla watches TV
00:35:58.198 : en:Sam looks for Britanny
00:37:56.191 : en:Rebecca cares Jay
00:39:33.162 : en:Rebecca talks to Kenji
00:41:10.093 : en:Kayla needs a help
00:44:23.160 : en:Kenji comes by Rebecca’s house
00:48:28.239 : en:Kayla asks Jay to stay
00:52:13.172 : en:Sam gets home
00:53:45.097 : en:Jay backs to his place
00:56:42.149 : en:Kenji has questions
00:58:32.134 : en:Sam finds out Kayla
01:01:44.159 : en:Kayla faints
01:04:07.177 : en:The bus stop
01:05:30.218 : en:Kenji brings something
01:09:43.096 : en:After Kayla gets sleep
01:17:03.202 : en:Rebecca and Jay are at home
01:21:28.217 : en:Another lie
01:25:14.151 : en:Please don’t leave me
01:28:45.237 : en:End Credits

1080p.x265-BvS

General
Unique ID : 66766706717391194343436052684671343733 (0x323ACCCB31FFFEE9CF4F59DA686CDC75)
Complete name : Welcome.to.the.blumhouse.s01e01.1080p.amzn.web-dl.x265-BvS.mkv
Format : Matroska
Format version : Version 4
File size : 551 MiB
Duration : 1 h 35 min
Overall bit rate : 810 kb/s
Movie name : BvSRips
Encoded date : UTC 2020-10-15 00:50:29
Writing application : mkvmerge v46.0.0 (‘No Deeper Escape’) 64-bit
Writing library : libebml v1.3.10 + libmatroska v1.5.2

Video
ID : 1
Format : HEVC
Format/Info : High Efficiency Video Coding
Format profile : [email protected]@Main
Codec ID : V_MPEGH/ISO/HEVC
Duration : 1 h 35 min
Bit rate : 552 kb/s
Width : 1 920 pixels
Height : 800 pixels
Display aspect ratio : 2.40:1
Frame rate mode : Constant
Frame rate : 23.976 (24000/1001) FPS
Color space : YUV
Chroma subsampling : 4:2:0
Bit depth : 8 bits
Bits/(Pixel*Frame) : 0.015
Stream size : 375 MiB (68%)
Writing library : x265 1.5:[Windows][GCC 4.7.0][32 bit] Encoding settings : wpp / ctu=64 / tu-intra-depth=1 / tu-inter-depth=1 / me=1 / subme=2 / merange=57 / no-rect / no-amp / max-merge=2 / temporal-mvp / early-skip / no-fast-cbf / rdpenalty=0 / no-tskip / no-tskip-fast / strong-intra-smoothing / no-lossless / no-cu-lossless / no-constrained-intra / fast-intra / open-gop / interlace=0 / keyint=240 / min-keyint=24 / scenecut=40 / rc-lookahead=15 / bframes=4 / bframe-bias=0 / b-adapt=0 / ref=1 / weightp / no-weightb / aq-mode=0 / aq-strength=0.00 / cbqpoffs=0 / crqpoffs=0 / rd=2 / psy-rd=0.00 / psy-rdoq=0.00 / signhide / lft / sao / no-sao-non-deblock / b-pyramid / no-cutree / rc=crf / crf=25.0 / qcomp=0.60 / qpmin=0 / qpmax=51 / qpstep=4 / ipratio=1.40 / pbratio=1.30
Default : Yes
Forced : No
Color range : Limited
Color primaries : BT.709
Transfer characteristics : BT.709
Matrix coefficients : BT.709

Audio
ID : 2
Format : AAC LC SBR
Format/Info : Advanced Audio Codec Low Complexity with Spectral Band Replication
Commercial name : HE-AAC
Format settings : NBC
Codec ID : A_AAC-5
Duration : 1 h 35 min
Bit rate : 256 kb/s
Channel(s) : 6 channels
Channel layout : C L R Ls Rs LFE
Sampling rate : 48.0 kHz
Frame rate : 23.438 FPS (2048 SPF)
Compression mode : Lossy
Stream size : 174 MiB (32%)
Language : English
Default : Yes
Forced : No

Text
ID : 3
Format : ASS
Codec ID : S_TEXT/ASS
Codec ID/Info : Advanced Sub Station Alpha
Duration : 4 s 500 ms
Bit rate : 149 b/s
Count of elements : 1
Compression mode : Lossless
Stream size : 84.0 Bytes (0%)
Default : Yes
Forced : No

Leave a Reply

Your email address will not be published. Required fields are marked *